#TITLE:Erian's Mystical Rhymes;
#SUBTITLE:^The White Dragon's Order^;
#ARTIST:Rhapsody;
#TITLETRANSLIT:;
#SUBTITLETRANSLIT:;
#ARTISTTRANSLIT:;
#CREDIT:;
#BANNER:emrtwdo-bn.PNG;
#BACKGROUND:emrtwdo-bg.PNG;
#LYRICSPATH:;
#CDTITLE:OMEGAspike.PNG;
#MUSIC:Erian's Mystical Rhymes.mp3;
#OFFSET:-11.200;
#SAMPLESTART:88.780;
#SAMPLELENGTH:13.180;
#SELECTABLE:YES;
#BPMS:0.000=170.000;
#STOPS:;
#BGCHANGES:;
// cache tags:
#FIRSTBEAT:0.000;
#LASTBEAT:1536.000;
#SONGFILENAME:Songs/Music V.I.P ^_^/(OMEGAspike)Erian's Mystical Rhymes ^The White Dragon's Order^/Erian's Mystical Rhymes.sm;
#HASMUSIC:1;
#HASBANNER:1;
#MUSICLENGTH:555.180;
// end cache tags

//---------------dance-single - ----------------
#NOTES:
     dance-single:
     :
     Hard:
     15:
     0.962,1.000,0.971,0.636,0.674,2847.000,539.000,353.000,0.000,47.000:
2000
0000
3002
0000
,
0203
0320
0030
0000
,
0020
0000
2030
0000
,
3002
2003
3000
0000
,
2000
0000
3200
0000
,
0320
0230
0300
0000
,
0002
0000
0203
0000
,
0320
0230
0300
0000
,
0002
0000
0000
0000
,
0203
0000
0320
0000
,
2030
0000
3002
0103
,
0010
0100
2000
3000
,
0220
0000
0000
0330
,
2020
0000
0000
0000
0000
0000
0000
0000
3030
0000
0000
0000
0001
0000
0000
0000
1000
0001
0000
0000
0100
0000
0000
0000
0010
0000
0000
0000
1000
0000
0000
0000
,
0101
0010
1000
0001
1100
0010
0001
1000
,
0110
1000
0001
1000
0101
0010
1000
0100
,
0011
0100
0001
1000
0101
1000
0010
0100
,
1001
0010
0100
1000
0011
1000
0100
0010
,
1001
0100
0010
1000
0011
1000
0010
0100
,
1001
0100
0010
0001
1100
0010
0001
1000
,
0110
0001
0100
0010
1001
0100
0010
1000
,
0011
0000
0000
0000
1000
0000
0000
0000
0100
0000
0000
0000
1000
0000
0000
0000
0001
0100
0000
0000
0010
0000
0000
0000
1000
0000
0000
0000
0001
0000
0000
0000
,
0200
0000
0000
0000
0302
0000
0000
0003
,
2020
0000
0000
3030
0202
0000
0000
0303
,
2020
0000
0000
3030
0200
0000
0310
0001
,
0020
0000
0000
0000
2030
0000
0000
3000
,
0220
0000
0000
0000
0000
0000
0000
0330
,
2000
0000
0000
0000
0000
0000
0000
3000
,
0202
0000
0000
0000
0000
0000
0000
0303
,
2020
0000
0000
3030
2002
0000
0000
3003
,
0220
0000
0000
0000
0000
0000
0000
0330
,
2000
0000
0000
0000
3200
0000
0000
0300
,
0022
0000
0000
0033
,
1000
0100
0010
0001
1000
0100
0010
0001
1000
0100
0010
0001
1000
0100
0010
0001
,
1100
0000
0010
0001
1000
0000
0010
0000
0100
0000
0001
0000
1010
0000
0100
0001
,
1000
0000
0100
0000
0010
0000
0001
0000
1010
0000
0100
0001
1000
0000
0010
0000
,
1000
0100
0022
0000
0000
0033
2020
0000
,
0000
0000
3030
0000
1001
0000
0100
0010
1000
0000
0001
0000
1000
0000
0100
0000
,
0011
0000
0100
1000
0010
0000
0100
0000
0001
0000
1000
0000
0101
0000
1000
0001
,
0100
0010
1000
0100
0022
0000
0000
0033
,
0202
0000
0000
0000
0000
0000
0303
0000
1010
0100
0001
1000
0101
0010
1000
0100
,
0011
0100
1000
0010
1001
0100
0010
0001
1100
0001
0010
0100
1010
0100
0001
1000
,
0110
0001
1000
0100
0011
0100
1000
0001
0110
1000
0001
0100
0011
1000
0100
0010
,
1001
0010
0100
1000
0110
0001
1000
0001
0110
1000
0010
0100
0011
0100
0010
1000
,
0101
0010
1000
0001
1010
0001
1000
0010
1100
0001
1000
0001
1100
0001
0100
0010
,
1100
0010
0100
0001
1010
0100
0001
1000
0101
1000
0001
0100
1001
0100
0001
1000
,
0110
0001
0100
0010
1001
0100
0010
0001
1010
0001
0010
0100
1001
0100
0010
0100
,
1001
0100
0000
0001
0010
0100
0000
1000
,
0000
0010
0000
0100
1001
0000
1001
0000
,
1010
0001
0000
1000
0100
0010
0001
1010
,
0000
1010
0000
0101
0000
0202
0000
0303
,
1001
0100
0000
0010
1000
0001
0000
0100
,
0000
0010
0000
1000
0110
0000
0110
0000
,
1010
0100
0000
0100
0010
1000
0001
1010
,
0000
0000
0101
0000
0000
0000
1001
0000
0000
0000
0110
1000
0100
0010
0001
0010
,
1100
0000
0002
0203
0000
0320
0000
0000
,
1031
0000
2000
3200
0000
0320
0000
0000
,
1031
0000
0002
0203
0000
0320
2030
3200
,
0311
0000
0101
0000
2002
0000
0000
3003
,
0101
0000
2000
3020
0000
0230
0000
0000
,
1301
0000
0002
0023
0000
0230
0000
0000
,
1310
0000
0020
0230
0000
0302
2003
3200
,
0312
0000
2000
0000
,
0000
0000
0000
0000
0000
0000
3003
0000
0000
0000
0000
0000
1000
0100
0010
0001
0000
0000
0001
0010
0100
1000
0000
0000
,
0020
0000
0130
0001
1100
0001
0100
0010
,
0001
0100
1000
0001
1010
0001
0100
0001
,
1000
0100
0010
0100
0011
1000
0100
0010
,
0001
0100
1000
0001
0110
0001
1000
0001
,
0100
1000
0010
1000
0101
1000
0010
1000
,
0100
0001
0010
0001
1100
0010
1000
0001
,
0100
0000
1000
0000
0010
0000
0100
0000
1001
0000
0000
0000
0010
1000
0010
0100
,
1001
0000
0010
1001
0000
0000
1010
0000
,
1001
0000
0020
2030
3002
0203
0320
2030
,
3101
0010
1000
0001
1100
0010
0001
1000
,
0001
0100
1000
0010
1001
0100
0010
0001
,
0010
0100
1000
0001
1010
0100
0010
0001
,
1000
0001
0100
1000
0011
0100
0001
1000
,
0100
0010
0001
0010
1100
0010
0001
1000
,
0010
0100
0001
1000
0110
0001
1000
0100
,
0010
0100
0001
1000
0110
1000
0001
0100
,
1010
0000
2002
0000
0000
3003
0101
0000
,
2002
0000
0000
0000
0000
0000
3003
0000
0010
0100
1000
0001
0100
0010
1000
0001
,
0200
0000
0310
1000
0011
1000
0001
1000
,
0010
0100
0001
1000
0110
0001
1000
0001
,
0100
0010
1000
0001
0110
1000
0100
0010
,
0001
1000
0001
0100
1001
0100
0010
1000
,
0100
0010
0001
1000
0101
1000
0001
0010
,
0100
1000
0010
0100
1001
0100
0010
1000
,
0100
0010
0001
1000
0011
1000
0100
0010
,
1001
0000
0220
0000
0000
0330
0110
0000
,
1001
0000
0000
0101
0000
0000
1010
0000
,
1100
0010
0100
0010
1100
0001
0100
0001
,
1000
0100
0001
1000
0011
1000
0010
0100
,
0001
1000
0010
0100
1001
0010
0100
1000
,
0100
0010
0100
1000
0101
0010
0100
0001
,
0100
0010
0100
0001
1100
0010
0001
0100
,
0010
1000
0100
0001
1100
0001
0100
1000
,
0010
0100
0001
1000
0101
1000
0001
1000
,
0101
0000
2002
0000
0000
3003
1001
0000
,
2020
0000
0000
0000
0000
0000
3030
0000
0100
0010
0001
1000
0010
0100
0001
1000
,
0100
0010
0001
1000
0101
1000
0100
0010
0001
1000
0010
0100
1001
0100
0010
1000
,
0001
0100
0001
1000
0011
1000
0001
0100
0010
1000
0001
1000
0101
0010
1000
0100
,
0010
0001
1000
0100
0011
0100
1000
0010
0100
0001
1000
0010
1001
0100
0010
1000
,
0100
0010
0001
1000
0101
0010
1000
0010
0100
0001
1000
0100
0011
1000
0010
0100
,
0001
1000
0001
0100
1010
0100
0001
1000
0100
0010
0001
0010
1100
0010
0001
0100
,
0010
1000
0001
0100
1001
0010
0100
0001
1000
0100
0010
0100
1001
0100
0010
0001
,
1000
0001
0100
0010
1001
0100
0010
1000
0100
0010
0100
1000
0011
1000
0100
0010
,
0001
0100
0010
0100
1001
0100
0010
1000
0001
0100
0001
1000
0101
1000
0100
0010
,
1001
0100
0010
0100
1001
0100
0010
0001
1000
0010
0100
0010
0101
0010
1000
0001
,
0100
0001
1000
0100
0011
0100
0010
0001
0100
0010
1000
0001
1100
0010
0100
0001
,
1000
0001
0100
0010
1100
0010
0100
0001
1000
0100
0010
0001
1100
0010
0100
0001
,
1000
0001
0100
0010
1001
0100
0001
0010
1000
0100
0010
0001
1000
0100
0010
0001
,
1100
0000
1000
0010
1001
0000
0100
0010
,
1100
0000
1000
0010
0101
0000
1000
0001
,
1100
0000
0001
1000
0101
0000
0010
1000
,
0110
0000
0001
1000
0101
0000
1000
0100
,
0011
0000
0010
0100
1001
0000
0100
0010
,
1001
0000
0010
0100
1010
0000
0100
1000
,
0011
0000
1000
0001
1010
0000
0100
0001
,
1010
0000
1001
0000
,
0101
0000
0000
0000
1010
0000
0100
0001
,
1010
0000
1000
0100
1010
0000
0001
0010
,
0101
0000
0010
0100
1001
0000
0100
0010
,
1001
0000
0100
0001
1010
0000
0010
1000
,
1001
0100
0010
1000
0101
1000
0010
0100
1001
0100
0010
0001
1100
0001
0010
0100
,
1001
0100
0010
1000
0101
0010
1000
0001
1100
0001
1000
0001
0110
1000
0100
0010
,
0101
0010
0100
1000
0101
0010
1000
0001
0100
0010
1000
0100
0011
0100
1000
0001
,
0100
0010
1000
0001
0110
1000
0001
0100
0011
0100
1000
0100
0011
0100
0010
0100
,
1001
0100
0010
1000
0101
0010
1000
0001
1100
0010
0001
0010
1100
0010
0001
1000
,
0101
1000
0010
1000
0101
0010
1000
0100
0011
0100
1000
0001
0100
0010
1000
0001
,
1010
0100
0001
1000
0001
1000
0100
0010
1001
0000
0100
0000
0010
0000
1000
0000
,
0001
0100
0000
0100
0000
0100
0000
0100
,
1001
0000
1001
0000
0010
1000
0001
0100
,
0001
1000
0001
1010
0000
0101
0000
1001
,
0000
1010
0000
0000
1001
0100
0010
0100
,
1000
0010
0000
0100
0000
0001
0000
1000
,
0101
0000
0101
0000
1000
0001
0100
0010
,
1000
0001
0010
1100
0000
0110
0000
1100
,
0000
0000
0101
1000
0100
0010
0001
1000
0110
0000
0001
0000
1000
0000
0100
0000
,
0011
0100
1000
0001
0100
0010
1000
0001
,
1100
0010
0001
1000
0100
0010
0001
1000
,
0011
1000
0100
0010
0001
1000
0001
0100
,
1001
0010
0100
0001
1000
0001
0100
0010
,
1001
0100
0010
1000
0001
0100
0001
1000
,
0110
0001
1000
0001
0010
0100
1000
0100
,
0011
0100
1000
0001
1010
0000
2002
0000
,
0000
3003
0101
0000
2002
3003
0020
2030
,
3002
0203
0302
2003
3110
0001
1000
0100
,
0011
1000
0001
0100
0010
1000
0010
0100
,
1001
0010
0100
0001
1000
0100
0010
0001
,
1100
0001
0010
0100
1000
0001
0100
0001
,
1010
0100
0001
1000
0100
0010
0001
0010
,
1100
0010
0001
1000
0010
0100
0001
1000
,
0101
0010
1000
0010
0100
0001
1000
0001
,
1100
0001
0100
0010
1001
0000
0202
0000
,
0000
0303
1010
0000
2200
3300
0020
0230
,
1300
0010
0100
0001
0100
0010
1000
0001
1100
0000
0001
0000
0010
0000
1000
0000
,
0110
0001
0010
0100
1000
0100
0010
0001
,
1100
0001
0100
1000
0001
1000
0010
0100
,
1001
0010
0100
0010
0001
0010
0100
1000
,
0101
1000
0010
0100
1000
0010
0100
0010
,
1001
0100
0010
0001
1000
0001
0010
0100
,
1001
0010
0100
0001
1000
0001
1000
0100
,
1010
0100
0001
0100
1010
0000
2002
0000
,
0000
3003
0101
0000
2002
3003
0020
0230
,
0320
2030
3002
0203
1301
0010
0001
0010
,
1100
0001
1000
0010
0100
0001
0100
0010
,
1001
0100
0010
1000
0001
0010
0100
1000
,
0011
1000
0100
0010
0001
1000
0010
1000
,
0101
0010
1000
0001
0010
0100
1000
0100
,
0011
0100
1000
0001
0100
0010
1000
0001
,
1010
0100
0001
0100
0010
1000
0001
1000
,
0011
1000
0010
0100
1001
0000
0220
0000
,
0000
0330
1010
0000
0220
0330
2000
3200
,
0301
1000
0001
1000
0001
1000
0001
1000
0001
0010
0100
1000
0011
0100
1000
0001
,
0100
0010
1000
0001
1010
0100
0001
1000
0100
0010
0001
1000
0110
0001
1000
0010
,
0100
0001
1000
0100
0011
0100
1000
0010
0100
0001
0100
0010
1100
0010
0100
0001
,
1000
0100
0010
0001
1100
0001
0010
0100
1000
0001
0100
0001
1010
0100
0010
0100
,
0001
1000
0100
0010
0101
0010
0100
1000
0010
0100
0001
1000
0101
1000
0001
0100
,
0010
1000
0100
0010
1001
0100
0010
0001
0100
0010
1000
0001
1100
0001
1000
0001
,
0100
0010
1000
0100
0011
0100
1000
0010
0100
0001
1000
0001
0110
1000
0001
0100
,
0001
1000
0100
0010
0101
0010
0100
1000
0010
0100
0001
1000
0011
1000
0001
0100
,
0010
1000
0100
0010
1001
0100
0010
0100
1001
0100
0010
0001
1100
0001
0100
0010
,
1000
0001
0100
0001
1010
0100
0001
1000
0100
0010
0001
1000
0110
0001
1000
0010
,
0100
0001
1000
0001
1100
0010
0100
0001
1000
0100
0010
0001
1100
0001
0010
0100
,
1000
0010
0100
0001
1010
0100
0001
1000
0100
0010
0001
1000
0011
1000
0100
0010
,
0001
0010
0100
1000
0001
0010
0100
1000
0011
0000
0000
0000
0001
0000
0100
0000
,
1001
0000
0010
0100
0011
0000
0001
0100
,
1010
0000
0001
1000
0011
0000
1000
0001
,
1010
0000
0100
0001
0110
0000
1000
0001
,
1010
0000
0001
0010
1100
0000
0100
0010
,
1001
0000
0010
0100
1001
0000
0100
0010
,
0101
0000
0010
0001
1100
0000
0001
1000
,
0101
0000
0010
1000
0101
0000
0000
0000
,
1001
0000
1010
0000
,
0101
0000
0010
1000
0101
0000
0001
0010
,
0101
0000
1000
0100
1010
0000
0100
0010
,
1001
0000
0010
0100
1001
0000
0010
1000
,
0101
0000
0000
0000
0100
0000
0001
0000
1001
0010
0100
0001
1010
0001
0100
0010
,
1001
0010
0100
1000
0011
1000
0100
0010
1001
0010
0100
0001
1010
0100
0001
1000
,
0011
1000
0001
1000
0110
0001
0010
0100
1010
0100
0010
0001
1010
0100
0001
1000
,
0010
0100
0001
0010
1100
0010
0001
1000
0010
0100
0001
1000
0110
0001
1000
0010
,
1100
0010
0001
0010
1100
0010
0100
0010
1001
0010
0100
0001
1010
0100
0001
1000
,
0011
0100
1000
0100
0011
0100
1000
0001
1010
0001
0100
0001
1010
0100
0001
0010
,
1100
0010
0001
1000
0010
0100
0001
1000
0101
0010
1000
0001
1000
0001
0010
0100
,
2001
3200
0302
2003
3102
2003
3020
0230
,
1302
0023
0230
2300
3012
2003
3200
0320
,
0132
2003
3020
0230
1302
0023
0230
0302
,
2103
3002
0203
0320
2130
3020
0230
0302
,
1013
0100
0001
1000
0101
0010
1000
0100
0011
0100
1000
0010
1001
0100
0010
1000
,
0011
1000
0100
0010
0101
0010
0100
1000
0011
1000
0100
0010
1001
0100
0010
1000
,
0101
0010
0100
0010
1100
0001
0010
0100
1010
0100
0001
1000
0011
1000
0010
0100
,
0001
1000
0001
1000
0001
1000
0001
1000
0001
0010
0100
1000
0001
0010
0100
1000
,
0101
1000
0100
0010
0001
1000
0100
0010
0001
1000
0100
0010
0001
1000
0100
0010
,
1001
0010
0100
1000
0001
0010
0100
1000
0001
0010
0100
1000
0001
0010
0100
1000
,
0011
1000
0001
0100
0010
1000
0001
0100
0010
1000
0001
0100
0010
1000
0001
0100
,
0011
0100
0010
1000
0001
0100
0010
1000
0001
0100
0010
1000
0001
0100
0010
1000
,
0011
0100
1000
0101
0010
1000
0011
0100
,
1000
0000
0101
0000
0010
0000
1000
0100
0020
0000
0000
0000
0000
0000
0000
0000
,
0031
0100
0010
1000
0001
0100
0010
1000
0102
0000
0000
0000
0000
0000
0000
0000
,
0000
0000
0203
0000
,
0320
0000
2031
0000
,
0000
0000
3200
0000
,
0000
0000
1302
0000
,
0000
0000
0023
0000
,
0230
0000
2310
0000
,
0000
0000
0000
0000
0000
0000
0000
0000
3001
0010
0100
1000
0001
0100
0001
1000
,
0010
0100
0001
1000
0100
0010
0001
0010
1100
0000
0001
0000
1010
0000
0100
0000
,
1001
0010
1100
0010
0101
1000
0001
0010
,
1100
0010
0001
1000
0110
0001
1000
0001
,
1010
0100
1001
0010
1100
0010
0001
1000
,
0101
0010
1000
0001
1100
0010
0100
0010
,
1000
0001
0100
0001
1010
0100
0010
0001
,
1010
0100
0010
0001
1100
0010
1000
0001
,
0100
0001
1000
0100
0011
0100
1000
0010
,
1001
0100
0010
1000
0011
1000
0010
0100
,
0001
0000
1000
0000
0100
0000
0010
0000
1001
0100
0010
1000
0100
0010
0001
1000
,
0101
0010
1000
0010
0100
0001
1000
0100
0011
0000
1100
0000
0110
0000
1001
0000
,
0110
0010
1000
0100
0010
0001
0010
0100
,
1000
0001
0100
0010
1000
1001
0110
1010
,
1001
0010
1000
0010
0001
0010
0100
1000
,
0100
0010
1000
0001
0100
1001
1010
1001
,
0101
1000
0100
1001
0110
0001
0100
1001
,
1010
0100
0010
0100
1001
0000
0000
0000
,
0101
0000
1001
0110
,
1010
0100
0010
1000
0010
0100
0010
1000
0100
0000
0010
0000
0101
0000
0010
0000
,
1000
0100
0011
0100
1000
0001
1100
0010
,
0100
0001
1010
0100
0001
1000
0011
0100
,
0001
0010
1100
0010
0001
1000
0110
0001
,
1000
0001
1100
0010
0101
1000
0011
1000
,
0010
0100
1001
0100
0010
1000
0011
1000
,
0100
0010
1001
0100
1001
0010
1100
0010
,
0001
1000
0011
1000
0001
0100
1010
0100
,
0001
0000
0000
0000
0000
0000
0010
0000
0000
0000
0000
0000
1100
0000
0000
0000
0000
0000
0010
0000
0000
0100
0000
0000
1001
0000
0000
0100
0000
0000
0010
0000
0000
0001
0000
0000
1000
0000
0000
0000
0001
0000
0000
0000
0100
0000
0000
0000
,
1001
0000
0000
0010
0000
0000
0100
0000
0000
1000
0000
0000
0100
0000
0000
0000
0010
0000
0000
0000
0001
0000
0000
0000
1100
0000
0000
0010
0000
0000
0100
0000
0000
0001
0000
0000
1000
0000
0000
0000
0100
0000
0000
0000
0010
0000
0000
0000
,
0101
0000
0000
0010
0000
0000
0100
0000
0000
1000
0000
0000
0100
0000
0000
0000
0010
0000
0000
0000
0001
0000
0000
0000
1100
0000
0000
0001
0000
0000
0010
0000
0000
0100
0000
0000
1000
0000
0000
0000
0001
0000
0000
0000
1000
0000
0000
0000
,
0101
0000
0000
0010
0000
0000
1000
0000
0000
0010
0000
0000
0100
0000
0000
0000
0001
0000
0000
0000
0010
0000
0000
0000
1100
0000
0000
0010
0000
0000
0001
0000
0000
1000
0000
0000
0010
0000
0000
0000
0000
0000
0100
0000
0000
0000
0000
0000
,
0001
0000
0000
0010
0000
0000
0100
0000
0000
1000
0000
0000
0001
0000
0000
0000
0000
0000
0100
0000
0000
0010
0000
0000
1001
0000
0100
0000
0010
0000
0001
0000
1000
0000
0100
0000
0010
0000
0001
0000
0100
0000
0001
0000
1000
0000
0010
0000
,
0100
0001
1000
0100
0010
0001
0010
0100
1000
0010
0100
0001
0010
0100
1000
0001
0010
0100
1000
0010
0100
0001
1000
0001
,
0100
0000
0000
0000
0000
0000
0000
0000
0010
0000
0000
0000
0000
0000
0000
0000
1000
0000
0000
0000
0000
0000
0000
0000
0100
0000
0000
0000
0000
0000
0000
0000
0010
0000
0000
0000
0000
0000
0000
0000
0001
0000
0000
0000
0000
0000
0000
0000
0010
0000
0000
0000
0000
0000
0000
0000
0100
0000
0000
0000
0000
0000
0000
0000
1000
0000
0000
0000
0000
0000
0000
0000
0010
0000
0000
0000
0000
0000
0000
0000
0100
0000
0000
0000
0000
0000
0000
0000
0001
0000
0000
0000
0000
0000
0000
0000
1000
0000
0000
0000
0000
0000
0100
0000
0000
0000
0000
0000
0010
0000
0000
0000
0000
0000
0001
0000
0000
0000
0000
0000
1000
0000
0000
0000
0000
0000
0100
0000
0000
0000
0000
0000
0010
0000
0000
0000
0000
0000
0001
0000
0000
0000
0000
0000
1000
0000
0000
0000
0000
0000
0000
0000
0010
0000
0000
0000
0000
0000
0000
0000
0100
0000
0000
0000
0000
0000
0000
0000
0001
0000
0000
0000
0000
0000
0000
0000
1000
0000
0000
0000
0000
0000
0000
0000
0001
0000
0000
0000
0000
0000
0000
0000
,
0100
0010
1000
0100
0010
0001
0010
0100
1000
0001
1000
0001
0100
0010
0100
0001
0100
0010
0100
0001
0100
0010
0100
0001
,
0100
0000
0010
0000
1000
0000
0010
0000
0100
0000
0010
0000
1000
0000
0010
0000
0100
0000
0010
0000
1000
0000
0010
0000
1001
0000
0000
0100
0000
0000
0010
0000
0000
0001
0000
0000
0010
0000
0000
0100
0000
0000
1000
0000
0000
0100
0000
0000
,
0010
0001
0010
0100
1000
0100
0010
0001
0010
0100
1000
0100
0010
0001
0010
0100
,
1000
0001
0100
0010
1000
0001
0100
0010
1001
0010
0100
1000
0100
0010
0001
0010
,
0100
1000
0100
0010
0001
0010
0100
1000
0100
0010
0001
0010
0100
1000
0100
0010
,
0001
0000
0000
0000
0010
0000
0000
0000
0100
0000
0000
0000
1000
0000
0000
0000
0100
0010
0000
0000
0000
0000
0000
0000
0000
0000
0000
0000
0000
0000
0000
0000
0002
0000
0000
0000
0000
0000
0000
0000
0000
0000
0000
0000
0000
0000
0000
0000
0000
0000
0000
0000
0000
0000
0000
0000
0000
0000
0000
0000
0000
0000
0000
0000
,
0000
0000
0000
0203
0320
2030
3002
0000
0000
0000
0000
0000
,
0000
0000
0000
0003
0000
0000
1000
0100
0010
0001
0010
0100
,
1000
0000
0000
0010
0000
0000
0100
0000
0000
0001
0000
0000
1000
0000
0000
0000
0001
0000
0000
0000
0100
0000
0000
0000
1000
0000
0100
0000
0010
0000
0001
0000
0000
0010
0000
0000
0100
0000
0000
1000
0000
0000
0001
0000
0000
0100
0000
0000
,
0001
0000
0010
0000
0100
0000
1000
0000
0000
0100
0000
0000
0010
0000
0000
0001
0000
0000
1000
0000
0000
0001
0000
0000
2010
0000
0000
0000
0000
0000
3200
0000
0000
0000
0000
0000
0320
0000
0000
0000
0000
0000
0230
0000
0000
0000
0000
0000
,
2300
3002
0203
0320
0230
0302
2003
3200
,
0320
0032
0023
0000
0230
2300
3200
0000
0320
0000
0032
0000
2003
0000
3002
0000
,
0203
0320
2030
3200
0321
0032
0203
0320
,
2030
0000
0000
0000
3001
0100
0010
0002
,
0000
0023
0230
0000
1300
0001
0100
0020
,
0000
2030
3002
0000
0013
0100
1000
0200
,
0000
0320
0032
0000
0023
0230
2300
3200
,
0320
0230
2300
3200
0312
0203
2300
3012
,
0000
1203
1302
0000
2013
3200
0320
1032
,
0000
2013
3012
0000
1003
0001
0100
0020
,
0000
2030
3200
0000
0310
0001
0010
2000
,
0000
3002
0203
0000
0310
1000
0001
0200
,
0000
0320
2030
0000
3002
0023
0230
0320
,
0032
0023
0230
0320
1032
0203
0320
2130
,
0000
3102
2013
0000
3210
0302
0023
2130
,
0000
3120
0132
0000
2103
3020
0230
1302
,
0000
1023
2130
0000
3102
0023
0230
2301
,
0000
3012
2013
3002
1013
0000
0010
0100
,
1001
0000
1000
0100
1001
0000
0001
0100
,
1001
0000
1000
0001
1100
0000
1000
0100
,
0011
0000
0010
0100
1010
0000
0001
1000
,
0110
0000
0010
0100
1010
0000
1000
0100
,
1001
0000
0010
1000
0101
0000
0100
0001
,
1010
0000
0100
0010
1001
0000
0010
0100
,
0011
0000
1000
0010
1001
0000
0000
0000
,
1010
0000
0000
0000
1001
0000
0010
0100
,
1001
0000
1000
0100
1001
0000
0001
1000
,
0110
0000
0100
0010
1001
0000
0001
0010
,
1100
0000
1000
0010
0101
0000
1000
0100
,
1010
0000
0000
0000
0001
0000
0010
0000
1001
0100
0010
1000
0101
0010
1000
0100
,
0011
0100
1000
0010
1001
0100
0010
1000
0011
1000
0100
0010
1001
0010
0100
1000
,
0101
1000
0100
0010
0101
1000
0100
0010
1100
0010
0100
1000
0011
0100
0001
1000
,
0100
0010
0001
0100
1001
0010
1000
0001
0100
0001
1000
0100
0011
0100
0010
1000
,
0101
0010
1000
0100
0011
0100
0001
1000
0101
0010
1000
0001
1100
0001
0100
0010
,
1001
0100
0010
0001
1100
0001
0010
0100
1001
0100
0010
1000
0101
0010
1000
0100
,
0011
0100
1000
0001
0100
0010
1000
0001
1010
0100
0001
1000
0100
0010
0001
1000
,
0110
0001
1000
0010
0101
0010
0100
0001
1010
0100
0001
1000
0110
1000
0001
0100
,
1001
0010
0100
1000
0101
1000
0010
0001
1100
0001
0010
0100
1001
0010
0100
1000
,
0101
0010
1000
0001
1100
0001
0010
0100
1000
0001
0100
0001
1010
0100
0001
1000
,
0100
0010
0001
0010
1001
0100
0010
1000
0101
0010
1000
0010
1100
0001
1000
0010
,
1001
0100
0010
1000
0101
0010
1000
0001
1010
0001
1000
0001
0110
1000
0001
0100
,
1010
0100
0001
1000
0011
0100
1000
0001
1100
0010
0100
0010
0100
0001
0010
0100
,
1001
0100
0010
0001
1000
0001
0100
0010
1001
0100
0010
1000
0010
0100
0001
1000
,
0101
0010
1000
0100
0010
0001
0010
0100
2002
0000
0000
0000
0000
0000
0000
0000
,
0003
0000
3200
0320
0032
0000
0000
0000
,
0000
0000
0000
0003
0200
0000
0000
0000
,
0000
0000
0000
0000
0000
0000
0020
0300
,
0000
2030
0000
0000
3200
0000
0000
0000
,
0000
0000
0320
0032
0023
0000
0000
0000
,
0000
2030
3020
0000
,
0000
0000
0000
0000
,
0000
0000
2030
0000
,
0000
0000
3200
0302
0023
0000
0000
0000
,
0000
2030
3200
0000
,
0000
0000
0000
0000
0000
2300
0000
0000
,
0000
3002
0000
0000
0000
0203
0000
0000
,
0000
0000
2300
3200
0320
0000
0000
0000
,
0000
0032
0203
0000
,
0000
0000
0000
0000
,
0000
0000
0320
0000
,
0000
0000
2030
3200
0320
0000
0000
0000
,
0000
0032
2003
0000
,
0000
0000
0000
0000
0000
3200
0000
0000
,
0000
0320
0000
0000
0000
0032
0000
0000
,
0000
0000
0203
0320
2030
0000
0000
0000
,
0000
3002
0023
0000
,
0000
0000
0000
0000
,
0000
0000
1030
0001
,
0100
0000
0010
0000
0000
0000
0000
1000
,
0000
0000
0000
0010
0000
0000
0000
0000
0100
0000
0000
0000
0001
0000
0000
0000
,
0100
0000
0000
0000
0010
0000
0000
0000
0000
1000
0000
0000
0000
0000
0010
0000
,
0000
0000
0000
0000
,
1000
0000
0000
0000
0000
0001
0000
0000
0000
0000
0100
0000
0000
0000
0010
0000
,
0000
1000
0000
0000
0000
0000
0100
0000
,
0000
0000
0000
0000
0010
0000
0000
0000
0000
0100
0000
0000
0000
0000
1000
0000
,
0000
0100
0000
0000
,
2002
0000
0000
0000
,
0000
0000
0000
0000
,
0000
0000
0000
0000
,
3003
0000
0000
0000
,
0000
0000
0000
0000
,
0000
0000
0000
0000
,
0000
0000
0000
0000
,
0000
0000
0000
0000
,
0000
0000
2000
0000
,
0000
0000
0000
0000
0000
3200
0000
0000
,
0000
0000
0000
0000
,
0000
0000
0000
0300
0000
0000
0000
0020
,
0000
0000
0000
0000
,
0000
0230
0000
0000
0000
0000
0000
0000
,
0000
0320
0000
0000
,
0000
0000
0000
2030
0000
0000
0000
0000
,
0000
0000
0000
3102
0000
0000
0000
0000
,
0000
0000
0203
0000
,
0000
0320
0000
0000
0000
0000
2030
0000
,
0000
0000
0000
0000
0000
0000
0000
3200
,
0000
0000
0000
0000
,
0302
0000
0000
0000
,
0000
0000
0000
0000
0000
0203
0000
0000
,
0000
0000
0320
0000
0000
0000
0000
0230
,
0000
0000
0000
0000
,
0000
0000
0000
0000
,
0000
0000
0000
0000
0300
2000
0000
0000
,
0000
0000
0000
0000
0000
0000
0000
3200
,
0000
0000
0000
0320
0000
0000
0000
0032
,
0000
0000
0000
0000
,
0000
0000
2003
0000
0000
0000
0000
0000
0000
0000
0000
3200
0000
0000
0000
0000
,
0000
0000
0000
0000
,
0000
0000
0000
0000
,
0000
0000
0000
0000
0000
0000
0000
0320
0000
0000
0000
0000
0000
0000
0000
0000
,
0000
0000
0000
0000
,
0000
0000
0000
0000
,
0000
0000
0000
0000
,
0000
0000
0000
0000
,
0030
0000
0000
0000
;
